Download Free Softwares
Request : Please click on the ad bottom of the forum banner for sporting me Your one click give me sport thanks

Download Free Softwares

Download Free Softwares Free Games Free Movies
 
HomeRegisterLog in
clicksia

Share | 
 

 Super Tanker (2011) BDRIP

View previous topic View next topic Go down 
AuthorMessage
SaJiD ShaheeN JuTT
Admin
Admin


Posts : 337
Join date : 2011-11-28
Age : 28
Location : pakistan

PostSubject: Super Tanker (2011) BDRIP   Thu Jan 26, 2012 1:56 am



General
Complete name: Super_Tanker-WBZ.avi
Format : AVI
Format/Info: Audio Video Interleave
File size: 842 MiB
Duration : 1h 23mn
Overall bit rate : 1 416 Kbps
Writing library: VirtualDub build 32842/release

Video
ID : 0
Format : MPEG-4 Visual
Format profile : Advanced Simple@L5
Format settings, BVOP: 2
Format settings, QPel: No
Format settings, GMC : No warppoints
Format settings, Matrix: Default (H.263)
Codec ID : XVID
Codec ID/Hint: XviD
Duration : 1h 23mn
Bit rate : 958 Kbps
Width: 704 pixels
Height : 390 pixels
Display aspect ratio : 16:9
Frame rate : 25.000 fps
Color space: YUV
Chroma subsampling : 4:2:0
Bit depth: 8 bits
Scan type: Progressive
Compression mode : Lossy
Bits/(Pixel*Frame) : 0.140
Stream size: 570 MiB (68%)
Writing library: XviD 63

Audio
ID : 1
Format : AC-3
Format/Info: Audio Coding 3
Mode extension : CM (complete main)
Codec ID : 2000
Duration : 1h 23mn
Bit rate mode: Constant
Bit rate : 448 Kbps
Channel(s) : 6 channels
Channel positions: Front: L C R, Side: L R, LFE
Sampling rate: 48.0 KHz
Bit depth: 16 bits
Compression mode : Lossy
Stream size: 267 MiB (32%)
Alignment: Split accross interleaves
Interleave, duration : 40 ms (1.00 video frame)
Interleave, preload duration : 500 ms


Code:
http://filepost.com/files/2c46299b/Super.T.BDRip.cW.rar
http://filevelocity.com/8b9lzya72k1q/Super.T.BDRip.cW.rar


PASSWORD: rw


Back to top Go down
http://free-download.forumur.net
 

Super Tanker (2011) BDRIP

View previous topic View next topic Back to top 
Page 1 of 1

 Similar topics

-
» XOUNTS Style Contest 2011
» Brooklyn NY Spring 2011 Photo Contest
» Mr. Knockaround 2011... it could be you!
» VIP Tickets to CAP 2011
» Future Forward Game Changer Award 2011

Permissions in this forum:You cannot reply to topics in this forum
Download Free Softwares :: Movies Section :: English Movies-