Download Free Softwares
Request : Please click on the ad bottom of the forum banner for sporting me Your one click give me sport thanks

Download Free Softwares

Download Free Softwares Free Games Free Movies
 
HomeRegisterLog in
clicksia

Share | 
 

 The Sleeper 2012 DVDRiP AC3

View previous topic View next topic Go down 
AuthorMessage
SaJiD ShaheeN JuTT
Admin
Admin


Posts : 337
Join date : 2011-11-28
Age : 28
Location : pakistan

PostSubject: The Sleeper 2012 DVDRiP AC3   Mon Jan 30, 2012 2:34 pm


General
Complete name : The.Sleeper.2012.DVDRiP.AC3-2.0.XviD-SiC.avi
Format : AVI
Format/Info : Audio Video Interleave
File size : 1.41 GiB
Duration : 1h 29mn
Overall bit rate : 2 253 Kbps

Video
ID : 0
Format : MPEG-4 Visual
Format profile : Advanced Simple@L5
Format settings, BVOP : 1
Format settings, QPel : No
Format settings, GMC : No warppoints
Format settings, Matrix : Default (H.263)
Codec ID : XVID
Codec ID/Hint : XviD
Duration : 1h 29mn
Bit rate : 1 926 Kbps
Width : 720 pixels
Height : 400 pixels
Display aspect ratio : 16:9
Frame rate : 23.976 fps
Color space : YUV
Chroma subsampling : 4:2:0
Bit depth : 8 bits
Scan type : Progressive
Compression mode : Lossy
Bits/(Pixel*Frame) : 0.279
Stream size : 1.20 GiB (85%)
Writing library : XviD 1.2.1 (UTC 2008-12-04)

Audio
ID : 1
Format : AC-3
Format/Info : Audio Coding 3
Mode extension : CM (complete main)
Codec ID : 2000
Duration : 1h 29mn
Bit rate mode : Constant
Bit rate : 320 Kbps
Channel(s) : 2 channels
Channel positions : Front: L R
Sampling rate : 48.0 KHz
Bit depth : 16 bits
Compression mode : Lossy
Stream size : 204 MiB (14%)
Alignment : Aligned on interleaves
Interleave, duration : 64 ms (1.53 video frames)
Interleave, preload duration : 192 ms
Title : VTS_01_1 T80 2_0ch 320Kbps DELAY 0ms


Code:
http://turbobit.net/mqtmoun39w0u/The.Sleeper.2011.DVDRiP.AC3-2.0.XviD-SiC.part1.rar.html
http://turbobit.net/s3m8w6qwe7sb/The.Sleeper.2011.DVDRiP.AC3-2.0.XviD-SiC.part2.rar.html
http://turbobit.net/50jelqptxctc/The.Sleeper.2011.DVDRiP.AC3-2.0.XviD-SiC.part3.rar.html

Code:
http://sharerun.com/6r8jz511po40/The.Sleeper.2011._RiP.AC3-2.0.XviD-SiC.part1.rar.html
http://sharerun.com/b1wjxdntv73a/The.Sleeper.2011._RiP.AC3-2.0.XviD-SiC.part2.rar.html
http://sharerun.com/6f362s4sny74/The.Sleeper.2011._RiP.AC3-2.0.XviD-SiC.part3.rar.html

Code:
http://letitbit.net/download/55840.5524c2696339d4dbfc299fc59df5/The.Sleeper.2011.DVDRiP.AC3-2.0.XviD-SiC.part1.rar.html
http://letitbit.net/download/08153.0a38491afa10037728a252da8ce2/The.Sleeper.2011.DVDRiP.AC3-2.0.XviD-SiC.part2.rar.html
http://letitbit.net/download/56236.50516db429ab467e86e0b8e433f5/The.Sleeper.2011.DVDRiP.AC3-2.0.XviD-SiC.part3.rar.html






Back to top Go down
http://free-download.forumur.net
 

The Sleeper 2012 DVDRiP AC3

View previous topic View next topic Back to top 
Page 1 of 1

 Similar topics

-
» Spring 2012 Fashion Week Sweepstakes *usa only*
» Hanna-Adapt or Die 2011-DVDRip
» 2012 Wineries Unlimited Sweepstakes
» McDonald Monopoly 2012 *United States, Guam, Saipan, Puerto Rico & Canada residents* *Pre-contest sweepstakes begins 9/18/12*
» 2012 Ntiaj teb yuav tsis kawg

Permissions in this forum:You cannot reply to topics in this forum
Download Free Softwares :: Movies Section :: English Movies-