Download Free Softwares
Request : Please click on the ad bottom of the forum banner for sporting me Your one click give me sport thanks

Download Free Softwares

Download Free Softwares Free Games Free Movies
 
HomeRegisterLog in
clicksia

Share | 
 

 A Dangerous Method (2011) BDRip

View previous topic View next topic Go down 
AuthorMessage
SaJiD ShaheeN JuTT
Admin
Admin


Posts : 337
Join date : 2011-11-28
Age : 28
Location : pakistan

PostSubject: A Dangerous Method (2011) BDRip   Tue Jan 31, 2012 3:17 pm

A.Dangerous.Method.2011.BDRip.XVID.AC3.HQ.Hive-CM8


Thx Hive

CM8 Doing it right the first time

Source: Bluray

Video: 720x384 @bitrate 1700 2pass
Audio: English DTS to AC3 5.1 @384
Sample: yes included
Subs: yes included


[You must be registered and logged in to see this link.]


General
Complete name : A.Dangerous.Method.2011.BDRip.XVID.AC3.HQ.Hive-CM8.avi
Format : AVI
Format/Info : Audio Video Interleave
File size : 1.45 GiB
Duration : 1h 39mn
Overall bit rate : 2 092 Kbps
Writing application : Nandub v1.0rc2
Writing library : Nandub build 1853/release

Video
ID : 0
Format : MPEG-4 Visual
Format profile : Advanced Simple@L5
Format settings, BVOP : 2
Format settings, QPel : Yes
Format settings, GMC : No warppoints
Format settings, Matrix : Default (H.263)
Muxing mode : Packed bitstream
Codec ID : XVID
Codec ID/Hint : XviD
Duration : 1h 39mn
Bit rate : 1 699 Kbps
Width : 720 pixels
Height : 384 pixels
Display aspect ratio : 1.850
Frame rate : 24.000 fps
Color space : YUV
Chroma subsampling : 4:2:0
Bit depth : 8 bits
Scan type : Progressive
Compression mode : Lossy
Bits/(Pixel*Frame) : 0.256
Stream size : 1.18 GiB (81%)
Writing library : XviD 1.2.1 (UTC 2008-12-04)

Audio
ID : 1
Format : AC-3
Format/Info : Audio Coding 3
Mode extension : CM (complete main)
Codec ID : 2000
Duration : 1h 39mn
Bit rate mode : Constant
Bit rate : 384 Kbps
Channel(s) : 6 channels
Channel positions : Front: L C R, Side: L R, LFE
Sampling rate : 48.0 KHz
Bit depth : 16 bits
Compression mode : Lossy
Delay relative to video : 14ms
Stream size : 273 MiB (18%)
Alignment : Split accross interleaves
Interleave, duration : 42 ms (1.00 video frame)
Interleave, preload duration : 500 ms



A look at how the intense relationship between Carl Jung and Sigmund Freud gives birth to psychoanalysis.


Keira Knightley ... Sabina Spielrein
Viggo Mortensen ... Sigmund Freud
Michael Fassbender ... Carl Jung
Vincent Cassel ... Otto Gross
Sarah Gadon ... Emma Jung


Code:
http://netload.in/dateieTBDJHVwcJ/A.Dangerous.Method.2011.BDRip.XVID.AC3.HQ.Hive-CM8.part1_ExpresShare.com.rar.htm
http://netload.in/dateiEYVB3p4KlY/A.Dangerous.Method.2011.BDRip.XVID.AC3.HQ.Hive-CM8.part2_ExpresShare.com.rar.htm
http://netload.in/dateigVMikpYf9e/A.Dangerous.Method.2011.BDRip.XVID.AC3.HQ.Hive-CM8.part3_ExpresShare.com.rar.htm




Code:
http://rapidshare.com/files/2940465002/A.Dangerous.Method.2011.BDRip.XVID.AC3.HQ.Hive-CM8.part1_ExpresShare.com.rar
http://rapidshare.com/files/1370065549/A.Dangerous.Method.2011.BDRip.XVID.AC3.HQ.Hive-CM8.part2_ExpresShare.com.rar
http://rapidshare.com/files/2893166528/A.Dangerous.Method.2011.BDRip.XVID.AC3.HQ.Hive-CM8.part3_ExpresShare.com.rar




Back to top Go down
http://free-download.forumur.net
mouhat



Posts : 2
Join date : 2012-02-02

PostSubject: Re: A Dangerous Method (2011) BDRip   Thu Feb 02, 2012 8:16 pm

Merci
Back to top Go down
 

A Dangerous Method (2011) BDRip

View previous topic View next topic Back to top 
Page 1 of 1

 Similar topics

-
» XOUNTS Style Contest 2011
» Brooklyn NY Spring 2011 Photo Contest
» Mr. Knockaround 2011... it could be you!
» VIP Tickets to CAP 2011
» Future Forward Game Changer Award 2011

Permissions in this forum:You cannot reply to topics in this forum
Download Free Softwares :: Movies Section :: English Movies-