Download Free Softwares
Request : Please click on the ad bottom of the forum banner for sporting me Your one click give me sport thanks

Download Free Softwares

Download Free Softwares Free Games Free Movies
 
HomeRegisterLog in
clicksia

Share | 
 

 Underworld Awakening (2012) DVDRip XviD

View previous topic View next topic Go down 
AuthorMessage
SaJiD ShaheeN JuTT
Admin
Admin


Posts : 337
Join date : 2011-11-28
Age : 28
Location : pakistan

PostSubject: Underworld Awakening (2012) DVDRip XviD   Mon Feb 06, 2012 4:39 am




Complete name: Underworld.Awakening.2012.DVDRip.XviD.avi
Format : AVI
Format/Info: Audio Video Interleave
Format profile : OpenDML
Format settings: rec
File size: 1,46 GB
Duration : 1h 27mn
Overall bit rate mode: Variable
Overall bit rate : 1 122 Kbps
Writing application: AVI-Mux GUI 1.17.8, Aug 30 200812:36:58

Video
ID : 0
Format : MPEG-4 Visual
Format profile : Advanced Simple@L5
Format settings, BVOP: 2
Format settings, QPel: No
Format settings, GMC : No warppoints
Format settings, Matrix: Default (H.263)
Muxing mode: Packed bitstream
Codec ID : XVID
Codec ID/Hint: XviD
Duration : 1h 27mn
Bit rate : 1 004 Kbps
Width: 640 pixels
Height : 352 pixels
Display aspect ratio : 16:9
Frame rate : 23.976 fps
Color space: YUV
Chroma subsampling : 4:2:0
Bit depth: 8 bits
Scan type: Progressive
Compression mode : Lossy
Bits/(Pixel*Frame) : 0.186
Stream size: 628 MiB (89%)
Writing library: XviD 64

Audio
ID : 1
Format : MPEG Audio
Format version : Version 1
Format profile : Layer 3
Mode : Joint stereo
Mode extension : MS Stereo
Codec ID : 55
Codec ID/Hint: MP3
Duration : 1h 27mn
Bit rate mode: Variable
Bit rate : 109 Kbps
Nominal bit rate : 128 Kbps
Channel(s) : 2 channels
Sampling rate: 48.0 KHz
Compression mode : Lossy
Stream size: 68.2 MiB (10%)
Alignment: Aligned on interleaves
Interleave, duration : 24 ms (0.58 video frame)
Interleave, preload duration : 77 ms
Title: WMMP2011 T80 2_0ch 128Kbps DELAY 0ms
Writing library: LAME3.98r
Encoding settings: -m j -V 4 -q 2 -lowpass 17 --abr 128

Storyline

When human forces discover the existence of the Vampire and Lycan clans, a war to eradicate both species commences. The vampire warrioress Selene leads the battle against humankind.



Code:
http://rapidshare.com/files/1993504682/Underworld.Awakening.2012.TS.702MB_Warez-Home.net.rar


Code:
http://www.netload.in/dateikdH4RyJb0N/Underworld.Awakening.2012.TS.702MB_Warez-Home.net.rar.htm

Code:
http://extabit.com/file/27b5axqadn6k8/Underworld.Awakening.2012.TS.702MB_Warez-Home.net.rar




Back to top Go down
http://free-download.forumur.net
 

Underworld Awakening (2012) DVDRip XviD

View previous topic View next topic Back to top 
Page 1 of 1

 Similar topics

-
» Criss Angel Mindfreak Season (1-6) Complete DVDRip XviD-MiXED
» Brothers and Sisters Season (1-4) DVDRip XviD-MiXED
» Spring 2012 Fashion Week Sweepstakes *usa only*
» Hanna-Adapt or Die 2011-DVDRip
» 2012 Wineries Unlimited Sweepstakes

Permissions in this forum:You cannot reply to topics in this forum
Download Free Softwares :: Movies Section :: English Movies-