Download Free Softwares
Request : Please click on the ad bottom of the forum banner for sporting me Your one click give me sport thanks

Download Free Softwares

Download Free Softwares Free Games Free Movies
 
HomeRegisterLog in
clicksia

Share | 
 

 Ghost Rider Spirit of Vengeance (2012) DVDRip XviD-

View previous topic View next topic Go down 
AuthorMessage
SaJiD ShaheeN JuTT
Admin
Admin


Posts : 337
Join date : 2011-11-28
Age : 28
Location : pakistan

PostSubject: Ghost Rider Spirit of Vengeance (2012) DVDRip XviD-   Sun Feb 12, 2012 8:17 pm


.

General
Complete name: Ghost Rider Spirit of Vengeance.2012.DvdRip.XviD-UnKnOwN.avi
Format : AVI
Format/Info: Audio Video Interleave
File size: 701 MiB
Duration : 1h 24mn
Overall bit rate mode: Variable
Overall bit rate : 1 164 Kbps
Writing application: VirtualDubMod 1.5.10.2 (build 2540/release)
Writing library: VirtualDubMod build 2540/release

Video
ID : 0
Format : MPEG-4 Visual
Format profile : Advanced Simple@L5
Format settings, BVOP: 2
Format settings, QPel: No
Format settings, GMC : No warppoints
Format settings, Matrix: Default (H.263)
Muxing mode: Packed bitstream
Codec ID : XVID
Codec ID/Hint: XviD
Duration : 1h 24mn
Bit rate : 1 003 Kbps
Width: 624 pixels
Height : 352 pixels
Display aspect ratio : 16:9
Frame rate : 25.000 fps
Color space: YUV
Chroma subsampling : 4:2:0
Bit depth: 8 bits
Scan type: Progressive
Compression mode : Lossy
Bits/(Pixel*Frame) : 0.183
Stream size: 603 MiB (86%)
Writing library: XviD 62

Audio
ID : 1
Format : MPEG Audio
Format version : Version 1
Format profile : Layer 3
Mode : Joint stereo
Mode extension : MS Stereo
Codec ID : 55
Codec ID/Hint: MP3
Duration : 1h 24mn
Bit rate mode: Variable
Bit rate : 154 Kbps
Channel(s) : 2 channels
Sampling rate: 48.0 KHz
Compression mode : Lossy
Stream size: 89.6 MiB (13%)
Alignment: Aligned on interleaves
Interleave, duration : 24 ms (0.60 video frame)
Interleave, preload duration : 544 ms
Writing library: LAME3.98r
Encoding settings: -m j -V 4 -q 2 -lowpass 17.5 --abr 154


Code:
http://ul.to/qh5lx7be



Back to top Go down
http://free-download.forumur.net
 

Ghost Rider Spirit of Vengeance (2012) DVDRip XviD-

View previous topic View next topic Back to top 
Page 1 of 1

 Similar topics

-
» Ghost Rider (Johhny Cage) and Dr.Strange Vs Link and Ganondorf
» Criss Angel Mindfreak Season (1-6) Complete DVDRip XviD-MiXED
» Brothers and Sisters Season (1-4) DVDRip XviD-MiXED
» School Spirit Photo Contest *usa only*
» Spring 2012 Fashion Week Sweepstakes *usa only*

Permissions in this forum:You cannot reply to topics in this forum
Download Free Softwares :: Movies Section :: English Movies-